Kingdom of Players



Heures au format UTC + 1 heure



Poster un nouveau sujet Répondre au sujet  [ 1 message ] 
Auteur Message
Hors ligne

Inscription: Mar 2016
Messages: 113
Sexe: Non specifié
MessageSujet du message: One Tree Hill S08 HTB
Posté: 19 Avr 2016, 08:48 

: :192 / :2 :Front: L R :48,0 :16 : :60,1 (4%) :English : HD 720 : AVC; 1280x720 (16:9); 3984 Kbps; 23,976 fps; 0,180 bpp 1: : AC3; 192 Kbps; CBR; 2 ch - , One.Tree.Hill.S01.720p.WEB-DL/One.Tree.Hill.S01E04.Crash Into You.720p.WEB-DL.NTV.mkvOne.Tree.Hill.S01.720p.WEB-DL/One.Tree.Hill.S01E07.Life in a Glass House.720p.WEB-DL.NTV.mkvOne.Tree.Hill.S01.720p.WEB-DL/One.Tree.Hill.S01E17.Spirit in the Night.720p.WEB-DL.NTV.mkvOne.Tree.Hill.S01.720p.WEB-DL/One.Tree.Hill.S01E02.The Places You Have Come to Fear the Most.720p.WEB-DL.NTV.mkvOne.Tree.Hill.S01.720p.WEB-DL/One.Tree.Hill.S01E18.To Wish Impossible Things.720p.WEB-DL.NTV.mkvOne.Tree.Hill.S01.720p.WEB-DL/One.Tree.Hill.S01E01.Pilot.720p.WEB-DL.NTV.mkvOne.Tree.Hill.S01.720p.WEB-DL/One.Tree.Hill.S01E03.Are You True.720p.WEB-DL.NTV.mkvOne.Tree.Hill.S01.720p.WEB-DL/One.Tree.Hill.S01E10.You Gotta Go There to Come Back.720p.WEB-DL.NTV.mkvOne.Tree.Hill.S01.720p.WEB-DL/One.Tree.Hill.S01E11.The Living Years.720p.WEB-DL.NTV.mkvOne.Tree.Hill.S01.720p.WEB-DL/One.Tree.Hill.S01E05.All That You Can't Leave Behind (aka Where I End and You Begin).720p.WEB-DL.NTV.mkvOne.Tree.Hill.S01.720p.WEB-DL/One.Tree.Hill.S01E06.Every Night Is Another Story.720p.WEB-DL.NTV.mkvOne.Tree.Hill.S01.720p.WEB-DL/One.Tree.Hill.S01E22.The Games That Play Us.720p.WEB-DL.NTV.mkvOne.Tree.Hill.S01.720p.WEB-DL/One.Tree.Hill.S01E16.The First Cut Is The Deepest.720p.WEB-DL.NTV.mkvOne.Tree.Hill.S01.720p.WEB-DL/One.Tree.Hill.S01E14.I Shall Believe.720p.WEB-DL.NTV.mkvOne.Tree.Hill.S01.720p.WEB-DL/One.Tree.Hill.S01E20.What Is And What Should Never Be.720p.WEB-DL.NTV.mkvOne.Tree.Hill.S01.720p.WEB-DL/One.Tree.Hill.S01E08.The Search for Something More.720p.WEB-DL.NTV.mkvOne.Tree.Hill.S01.720p.WEB-DL/One.Tree.Hill.S01E12.Crash Course in Polite Conversations.720p.WEB-DL.NTV.mkvOne.Tree.Hill.S01.720p.WEB-DL/One.Tree.Hill.S01E21.The Leaving Song.720p.WEB-DL.NTV.mkvOne.Tree.Hill.S01.720p.WEB-DL/One.Tree.Hill.S01E19.How Can You Be Sure.720p.WEB-DL.NTV.mkvOne.Tree.Hill.S01.720p.WEB-DL/One.Tree.Hill.S01E15.Suddenly Everything Has Changed.720p.WEB-DL.NTV.mkvOne.Tree.Hill.S01.720p.WEB-DL/One.Tree.Hill.S01E09.With Arms Outstretched.720p.WEB-DL.NTV.mkvOne.Tree.Hill.S01.720p.WEB-DL/One.Tree.Hill.S01E13.Hanging by a Moment.720p.WEB-DL.NTV.mkv 2016 Filmix.net . All torrents Anime Applications Games Movies Music TV shows Other Users Login Email: Password: Create an account Forgot your password? . 48.01 GB 26 2015 + 44 . What can I do? If you're a visitor of this website: Please try again in a few minutes. :3985 / :1280 . 35.82 GB 26 2015 1-21 One.Tree.Hill.season.4.Rus.NTV.Eng.DVDrip.othfilm.ru/One.Tree.Hill.s04e07-All These Things That I've Done.avi 7.98 GB SD : SD : XVID 640x352, 23.98fps 1: : MPEG Audio Layer 3, 44100Hz, stereo 128Kbps - , One.Tree.Hill.season.4.Rus.NTV.Eng.DVDrip.othfilm.ru/One.Tree.Hill.s04e07-All These Things That I've Done.aviOne.Tree.Hill.season.4.Rus.NTV.Eng.DVDrip.othfilm.ru/One.Tree.Hill.s04e21-All of a Sudden I Miss Everyone.aviOne.Tree.Hill.season.4.Rus.NTV.Eng.DVDrip.othfilm.ru/One.Tree.Hill.s04e20-The Birth and Death of the Day.aviOne.Tree.Hill.season.4.Rus.NTV.Eng.DVDrip.othfilm.ru/One.Tree.Hill.s04e05-I Love You But I've Chosen The Darkness.aviOne.Tree.Hill.season.4.Rus.NTV.Eng.DVDrip.othfilm.ru/One.Tree.Hill.s04e17-It Gets The Worst at Night.aviOne.Tree.Hill.season.4.Rus.NTV.Eng.DVDrip.othfilm.ru/One.Tree.Hill.s04e18-The Runaway Found.aviOne.Tree.Hill.season.4.Rus.NTV.Eng.DVDrip.othfilm.ru/One.Tree.Hill.s04e15-Prom Night at Hater High.aviOne.Tree.Hill.season.4.Rus.NTV.Eng.DVDrip.othfilm.ru/One.Tree.Hill.s04e02-Things I Forgot at Birth.aviOne.Tree.Hill.season.4.Rus.NTV.Eng.DVDrip.othfilm.ru/One.Tree.Hill.s04e08-Nothing Left To Say But Goodbye.aviOne.Tree.Hill.season.4.Rus.NTV.Eng.DVDrip.othfilm.ru/One.Tree.Hill.s04e13-Pictures of You.aviOne.Tree.Hill.season.4.Rus.NTV.Eng.DVDrip.othfilm.ru/One.Tree.Hill.s04e06-Where Did You Sleep Last Night.aviOne.Tree.Hill.season.4.Rus.NTV.Eng.DVDrip.othfilm.ru/One.Tree.Hill.s04e12-Resolve.aviOne.Tree.Hill.season.4.Rus.NTV.Eng.DVDrip.othfilm.ru/One.Tree.Hill.s04e04-Can't Stop This Thing We've Started.aviOne.Tree.Hill.season.4.Rus.NTV.Eng.DVDrip.othfilm.ru/One.Tree.Hill.s04e01-The Same Deep Water As You.aviOne.Tree.Hill.season.4.Rus.NTV.Eng.DVDrip.othfilm.ru/One.Tree.Hill.s04e14-Sad Songs for Dirty Lovers.aviOne.Tree.Hill.season.4.Rus.NTV.Eng.DVDrip.othfilm.ru/One.Tree.Hill.s04e16-You Call It Madness, But I Call It Love.aviOne.Tree.Hill.season.4.Rus.NTV.Eng.DVDrip.othfilm.ru/One.Tree.Hill.s04e19-Ashes of Dreams You Let Die.aviOne.Tree.Hill.season.4.Rus.NTV.Eng.DVDrip.othfilm.ru/One.Tree.Hill.s04e09-Some You Give Away.aviOne.Tree.Hill.season.4.Rus.NTV.Eng.DVDrip.othfilm.ru/One.Tree.Hill.s04e03-Good News For People Who Love Bad News.aviOne.Tree.Hill.season.4.Rus.NTV.Eng.DVDrip.othfilm.ru/One.Tree.Hill.s04e10-Songs To Love And Die By.aviOne.Tree.Hill.season.4.Rus.NTV.Eng.DVDrip.othfilm.ru/One.Tree.Hill.s04e11-Everything in its Right Place.avi 1-21 One.Tree.Hill.S04.720p.WEB-DL/One.Tree.Hill.S04E07.All These Things That I've Done.720p.WEB-DL.NTV.mkv 27.84 GB HD 720 General Unique ID:230737962874951259534782267838165342130 (0xAD9683E432BBF10291B237835286D7B2) Complete name:D:DownloadsOne Tree Hill 4One.Tree.Hill.S04.720p.WEB-DLOne.Tree.Hill.S04E02.Things I Forgot at Birth.720p.WEB-DL.NTV.mkv Format:Matroska Format version:Version 2 File size:1.28 GiB Duration:42mn 29s Overall bit rate:4 318 Kbps Movie name:Release by Budda Encoded date:UTC 2011-09-12 21:40:40 Writing application:mkvmerge v4.9.1 ('Ich will') built on Jul 11 2011 23:53:15 Writing library:libebml v1.2.1 + libmatroska v1.1.1 Video ID:1 Format:AVC Format/Info:Advanced Video Codec Format profile:HighL3.1 Format settings, CABAC:No Format settings, ReFrames:2 frames Codec ID:VMPEG4/ISO/AVC Duration:42mn 29s Bit rate:3 848 Kbps Width:1 280 pixels Height:720 pixels Display aspect ratio:16:9 Frame rate:23.976 fps Color space:YUV Chroma subsampling:4:2:0 Bit depth:8 bits Scan type:Progressive Bits/(Pixel*Frame):0.174 Stream size:1.14 GiB (89%) Title:One Tree Hill S04E02 - "Things I Forgot at Birth" Language:English Color primaries:BT.709-5, BT.1361, IEC 61966-2-4, SMPTE RP177 Transfer characteristics:BT.709-5, BT.1361 Matrix coefficients:BT.709-5, BT.1361, IEC 61966-2-4 709, SMPTE RP177 Audio #1 ID:2 Format:AC-3 Format/Info:Audio Coding 3 Mode extension:CM (complete main) Codec ID:AAC3 Duration:42mn 29s Bit rate mode:Constant Bit rate:192 Kbps Channel(s):2 channels Channel positions:Front: L R Sampling rate:48.0 KHz Bit depth:16 bits Compression mode:Lossy Stream size:58.4 MiB (4%) Title:AC3 2.0 192 kbps [HTB+] Language:Russian Audio #2 ID:3 Format:AC-3 Format/Info:Audio Coding 3 Mode extension:CM (complete main) Codec ID:AAC3 Duration:42mn 29s Bit rate mode:Constant Bit rate:192 Kbps Channel(s):2 channels Channel positions:Front: L R Sampling rate:48.0 KHz Bit depth:16 bits Compression mode:Lossy Stream size:58.4 MiB (4%) Title:AC3 2.0 192 kbps Language:English : HD 720 : AVC; 1280x720 (16:9); 3984 Kbps; 23,976 fps; 0,180 bpp 1: : AC3; 192 Kbps; CBR; 2 ch - , One.Tree.Hill.S04.720p.WEB-DL/One.Tree.Hill.S04E07.All These Things That I've Done.720p.WEB-DL.NTV.mkvOne.Tree.Hill.S04.720p.WEB-DL/One.Tree.Hill.S04E15.Prom Night at Hater High.720p.WEB-DL.NTV.mkvOne.Tree.Hill.S04.720p.WEB-DL/One.Tree.Hill.S04E04.Can't Stop This Thing We've Started.720p.WEB-DL.NTV.mkvOne.Tree.Hill.S04.720p.WEB-DL/One.Tree.Hill.S04E09.Some You Give Away.720p.WEB-DL.NTV.mkvOne.Tree.Hill.S04.720p.WEB-DL/One.Tree.Hill.S04E20.The Birth and Death of the Day.720p.WEB-DL.NTV.mkvOne.Tree.Hill.S04.720p.WEB-DL/One.Tree.Hill.S04E16.You Call It Madness, But I Call It Love.720p.WEB-DL.NTV.mkvOne.Tree.Hill.S04.720p.WEB-DL/One.Tree.Hill.S04E21.All of a Sudden I Miss Everyone.720p.WEB-DL.NTV.mkvOne.Tree.Hill.S04.720p.WEB-DL/One.Tree.Hill.S04E18.The Runaway Found.720p.WEB-DL.NTV.mkvOne.Tree.Hill.S04.720p.WEB-DL/One.Tree.Hill.S04E08.Nothing Left To Say But Goodbye.720p.WEB-DL.NTV.mkvOne.Tree.Hill.S04.720p.WEB-DL/One.Tree.Hill.S04E17.It Gets the Worst at Night.720p.WEB-DL.NTV.mkvOne.Tree.Hill.S04.720p.WEB-DL/One.Tree.Hill.S04E01.The Same Deep Water As You.720p.WEB-DL.NTV.mkvOne.Tree.Hill.S04.720p.WEB-DL/One.Tree.Hill.S04E12.Resolve.720p.WEB-DL.NTV.mkvOne.Tree.Hill.S04.720p.WEB-DL/One.Tree.Hill.S04E05.I Love You But I've Chosen Darkness.720p.WEB-DL.NTV.mkvOne.Tree.Hill.S04.720p.WEB-DL/One.Tree.Hill.S04E06.Where Did You Sleep Last Night.720p.WEB-DL.NTV.mkvOne.Tree.Hill.S04.720p.WEB-DL/One.Tree.Hill.S04E13.Pictures of You.720p.WEB-DL.NTV.mkvOne.Tree.Hill.S04.720p.WEB-DL/One.Tree.Hill.S04E14.Sad Songs for Dirty Lovers.720p.WEB-DL.NTV.mkvOne.Tree.Hill.S04.720p.WEB-DL/One.Tree.Hill.S04E19.Ashes of Dreams You Let Die.720p.WEB-DL.NTV.mkvOne.Tree.Hill.S04.720p.WEB-DL/One.Tree.Hill.S04E02.Things I Forgot at Birth.720p.WEB-DL.NTV.mkvOne.Tree.Hill.S04.720p.WEB-DL/One.Tree.Hill.S04E03.Good News For People Who Love Bad News.720p.WEB-DL.NTV.mkvOne.Tree.Hill.S04.720p.WEB-DL/One.Tree.Hill.S04E10.Songs to Love and Die By.720p.WEB-DL.NTV.mkvOne.Tree.Hill.S04.720p.WEB-DL/One.Tree.Hill.S04E11.Everything In Its Right Place.720p.WEB-DL.NTV.mkv 21 . An Error 522 means that the request was able to connect to your web server, but that the request didn't finish. 185.87.144 Search My Profile Help . 43.79 GB 26 2015 + 42 . :16:9 :23,976 / :YUV :4:2:0 :8 : /(*):0.180 :1,22 (89%) :English :BT.709-5, BT.1361, IEC 61966-2-4, SMPTE RP177 :BT.709-5, BT.1361 :BT.709-5, BT.1361, IEC 61966-2-4 709, SMPTE RP177 #1 :2 :AC-3 /:Audio Coding 3 :CM (complete main) :Header stripping :AAC3 :43 .
66bede9e92

19.04.2016 : : 45 : 10 . The present talents are his two sons, Nathan Scott, a beautiful and popular athlete, the absolute star, who was molded and stifled by his proud dad, ambitious Dan Scott, who pushes him harder then even the coach approves of, but rather neglected by his spoiled, impulsive mother Deb, an alcoholic, and Lucas, abandoned at birth with his devoted mother, hard-working caf-owner Karen Roe, who grew up with Dan's older but poor brother Keith as substitute father as a social reject, only playing hoops on a public yard in the park with street-kids, his passion being reading; when an incident forces the coach to replace suspended players, Lucas soon proves . HOME BROWSE TOP TORRENTS LATEST TORRENTS SEARCH CLOUD REGISTER FAQ CONTACT . : :192 / :2 :Front: L R :48,0 :16 : :60,1 (4%) :+ :Russian #2 :3 :AC-3 /:Audio Coding 3 :CM (complete main) :Header stripping :AAC3 :43 . 38.06 GB 26 2015 1-22 One.Tree.Hill.S07.DVDRip.Rus.Eng/One.Tree.Hill.S07E15.DVDRip.rus.eng.avi 8.34 GB SD : SD : 640x352 23.98fps 0.19bit/pixel 1006Kbps 1: : Dolby AC3, 48000Hz, stereo 192Kbps - , One.Tree.Hill.S07.DVDRip.Rus.Eng/One.Tree.Hill.S07E15.DVDRip.rus.eng.aviOne.Tree.Hill.S07.DVDRip.Rus.Eng/One.Tree.Hill.S07E17.DVDRip.rus.eng.aviOne.Tree.Hill.S07.DVDRip.Rus.Eng/One.Tree.Hill.S07E22.DVDRip.rus.eng.aviOne.Tree.Hill.S07.DVDRip.Rus.Eng/One.Tree.Hill.S07E05.DVDRip.Rus.Eng.aviOne.Tree.Hill.S07.DVDRip.Rus.Eng/One.Tree.Hill.S07E14.DVDRip.rus.eng.aviOne.Tree.Hill.S07.DVDRip.Rus.Eng/One.Tree.Hill.S07E07.DVDRip.Rus.Eng.aviOne.Tree.Hill.S07.DVDRip.Rus.Eng/One.Tree.Hill.S07E08.DVDRip.Rus.Eng.aviOne.Tree.Hill.S07.DVDRip.Rus.Eng/One.Tree.Hill.S07E12.DVDRip.rus.eng.aviOne.Tree.Hill.S07.DVDRip.Rus.Eng/One.Tree.Hill.S07E10.DVDRip.Rus.Eng.aviOne.Tree.Hill.S07.DVDRip.Rus.Eng/One.Tree.Hill.S07E18.DVDRip.rus.eng.aviOne.Tree.Hill.S07.DVDRip.Rus.Eng/One.Tree.Hill.S07E01.DVDRip.Rus.Eng.aviOne.Tree.Hill.S07.DVDRip.Rus.Eng/One.Tree.Hill.S07E09.DVDRip.Rus.Eng.aviOne.Tree.Hill.S07.DVDRip.Rus.Eng/One.Tree.Hill.S07E16.DVDRip.rus.eng.aviOne.Tree.Hill.S07.DVDRip.Rus.Eng/One.Tree.Hill.S07E04.DVDRip.Rus.Eng.aviOne.Tree.Hill.S07.DVDRip.Rus.Eng/One.Tree.Hill.S07E19.DVDRip.rus.eng.aviOne.Tree.Hill.S07.DVDRip.Rus.Eng/One.Tree.Hill.S07E06.DVDRip.Rus.Eng.aviOne.Tree.Hill.S07.DVDRip.Rus.Eng/One.Tree.Hill.S07E03.DVDRip.Rus.Eng.aviOne.Tree.Hill.S07.DVDRip.Rus.Eng/One.Tree.Hill.S07E13.DVDRip.rus.eng.aviOne.Tree.Hill.S07.DVDRip.Rus.Eng/One.Tree.Hill.S07E02.DVDRip.Rus.Eng.aviOne.Tree.Hill.S07.DVDRip.Rus.Eng/One.Tree.Hill.S07E20.DVDRip.rus.eng.aviOne.Tree.Hill.S07.DVDRip.Rus.Eng/One.Tree.Hill.S07E11.DVDRip.rus.eng.aviOne.Tree.Hill.S07.DVDRip.Rus.Eng/One.Tree.Hill.S07E21.DVDRip.rus.eng.avi 1-22 One.Tree.Hill.S07.720p.WEB-DL.NTV+/One.Tree.Hill.S07E01.430 AM (Apparently They Were Travelling Abroad).720p.WEB-DL.NTV+.mkv 29.72 GB HD 720 Format:Matroska Format version:Version 2 File size:1.37 GiB Duration:42mn 5s Overall bit rate:4 663 Kbps Movie name:01 4:30 AM (Apparently They Were Travelling Abroad) Encoded date:UTC 2011-10-07 16:54:03 Writing application:mkvmerge v3.4.0 ('Rapunzel') May 15 2010 09:38:20 Writing library:libebml v0.8.0 + libmatroska v0.9.0 Video ID:1 Format:AVC Format/Info:Advanced Video Codec Format profile:HighL3.1 Format settings, CABAC:No Format settings, ReFrames:2 frames Codec ID:VMPEG4/ISO/AVC Duration:42mn 5s Bit rate:3 994 Kbps Width:1 280 pixels Height:720 pixels Display aspect ratio:16:9 Frame rate:23.976 fps Color space:YUV Chroma subsampling:4:2:0 Bit depth:8 bits Scan type:Progressive Bits/(Pixel*Frame):0.181 Stream size:1.17 GiB (86%) Language:English Color primaries:BT.709-5, BT.1361, IEC 61966-2-4, SMPTE RP177 Transfer characteristics:BT.709-5, BT.1361 Matrix coefficients:BT.709-5, BT.1361, IEC 61966-2-4 709, SMPTE RP177 Audio #1 ID:2 Format:AC-3 Format/Info:Audio Coding 3 Mode extension:CM (complete main) Codec ID:AAC3 Duration:42mn 5s Bit rate mode:Constant Bit rate:192 Kbps Channel(s):2 channels Channel positions:Front: L R Sampling rate:48.0 KHz Bit depth:16 bits Compression mode:Lossy Stream size:57.8 MiB (4%) Title:NTV+ Language:Russian Audio #2 ID:3 Format:AC-3 Format/Info:Audio Coding 3 Mode extension:CM (complete main) Codec ID:AAC3 Duration:42mn 5s Bit rate mode:Constant Bit rate:384 Kbps Channel(s):6 channels Channel positions:Front: L C R, Side: L R, LFE Sampling rate:48.0 KHz Bit depth:16 bits Compression mode:Lossy Stream size:116 MiB (8%) Language:English : HD 720 : AVC; 1280x720 (16:9); 4060 Kbps; 23,976 fps; 0,184 bpp 1: : AC3; 192 Kbps; CBR; 2 ch - , One.Tree.Hill.S07.720p.WEB-DL.NTV+/One.Tree.Hill.S07E01.430 AM (Apparently They Were Travelling Abroad).720p.WEB-DL.NTV+.mkvOne.Tree.Hill.S07.720p.WEB-DL.NTV+/One.Tree.Hill.S07E02.What Are You Willing to Lose.720p.WEB-DL.NTV+.mkvOne.Tree.Hill.S07.720p.WEB-DL.NTV+/One.Tree.Hill.S07E03.Hold My Hand As Im Lowered.720p.WEB-DL.NTV+.mkvOne.Tree.Hill.S07.720p.WEB-DL.NTV+/One.Tree.Hill.S07E04.Believe Me, I'm Lying.720p.WEB-DL.NTV+.mkvOne.Tree.Hill.S07.720p.WEB-DL.NTV+/One.Tree.Hill.S07E05.Your Cheatin' Heart.720p.WEB-DL.NTV+.mkvOne.Tree.Hill.S07.720p.WEB-DL.NTV+/One.Tree.Hill.S07E06.Deep Ocean Vast Sea.720p.WEB-DL.NTV+.mkvOne.Tree.Hill.S07.720p.WEB-DL.NTV+/One.Tree.Hill.S07E07.I and Love and You.720p.WEB-DL.NTV+.mkvOne.Tree.Hill.S07.720p.WEB-DL.NTV+/One.Tree.Hill.S07E08.I Just Died In Your Arms Tonight.720p.WEB-DL.NTV+.mkvOne.Tree.Hill.S07.720p.WEB-DL.NTV+/One.Tree.Hill.S07E09.Now You Lift Your Eyes to the Sun4.720p.WEB-DL.NTV+.mkvOne.Tree.Hill.S07.720p.WEB-DL.NTV+/One.Tree.Hill.S07E10.You Are a Runner and I Am My Father's Son.720p.WEB-DL.NTV+.mkvOne.Tree.Hill.S07.720p.WEB-DL.NTV+/One.Tree.Hill.S07E11.You Know I Love You, Don't You.720p.WEB-DL.NTV+.mkvOne.Tree.Hill.S07.720p.WEB-DL.NTV+/One.Tree.Hill.S07E12.Some Roads Lead Nowhere.720p.WEB-DL.NTV+.mkvOne.Tree.Hill.S07.720p.WEB-DL.NTV+/One.Tree.Hill.S07E13.Weeks Go By Like Days.720p.WEB-DL.NTV+.mkvOne.Tree.Hill.S07.720p.WEB-DL.NTV+/One.Tree.Hill.S07E14.Family Affair.720p.WEB-DL.NTV+.mkvOne.Tree.Hill.S07.720p.WEB-DL.NTV+/One.Tree.Hill.S07E15.Don't You Forget About Me.720p.WEB-DL.NTV+.mkvOne.Tree.Hill.S07.720p.WEB-DL.NTV+/One.Tree.Hill.S07E16.My Attendance Is Bad But My Intentions Are Good.720p.WEB-DL.NTV+.mkvOne.Tree.Hill.S07.720p.WEB-DL.NTV+/One.Tree.Hill.S07E17.At the Bottom of Everything.720p.WEB-DL.NTV+.mkvOne.Tree.Hill.S07.720p.WEB-DL.NTV+/One.Tree.Hill.S07E18.The Last Day of Our Acquaintance.720p.WEB-DL.NTV+.mkvOne.Tree.Hill.S07.720p.WEB-DL.NTV+/One.Tree.Hill.S07E19.Every Picture Tells a Story.720p.WEB-DL.NTV+.mkvOne.Tree.Hill.S07.720p.WEB-DL.NTV+/One.Tree.Hill.S07E20.Learning to Fall.720p.WEB-DL.NTV+.mkvOne.Tree.Hill.S07.720p.WEB-DL.NTV+/One.Tree.Hill.S07E21.What's In The Ground Belongs To You.720p.WEB-DL.NTV+.mkvOne.Tree.Hill.S07.720p.WEB-DL.NTV+/One.Tree.Hill.S07E22.Almost Everything I Wish I'd Said The Last Time I Saw You.720p.WEB-DL.NTV+.mkv 6 48 . (1,00 ) :504 ms :LAME3.98.4 : SD : 624x352 (1.77:1), 23.976 fps, XviD MPEG-4 1013 kbps avg, 0.19 bit/pixel 1: : 48 kHz, MPEG Layer 3, 2 ch, 192.00 kbps avg - , One Tree Hill (s09, NTV+)/One.Tree.Hill.s09e13.One.Tree.Hill.Rus.Eng.DVDRip.aviOne Tree Hill (s09, NTV+)/One.Tree.Hill.s09e10.Hardcore.Will.Never.Die.But.You.Will.Rus.Eng.DVDRip.aviOne Tree Hill (s09, NTV+)/One.Tree.Hill.s09e08.A.Rush.of.Blood.to.the.Head.Rus.Eng.DVDRip.aviOne Tree Hill (s09, NTV+)/One.Tree.Hill.s09e04.Don't.You.Want.to.Share.the.Guilt.Rus.Eng.DVDRip.aviOne Tree Hill (s09, NTV+)/One.Tree.Hill.s09e07.Last.Known.Surroundings.Rus.Eng.DVDRip.aviOne Tree Hill (s09, NTV+)/One.Tree.Hill.s09e06.Catastrophe.and.the.Cure.Rus.Eng.DVDRip.aviOne Tree Hill (s09, NTV+)/One.Tree.Hill.s09e01.Know.This.We've.Noticed.Rus.Eng.DVDRip.aviOne Tree Hill (s09, NTV+)/One.Tree.Hill.s09e11.Danny.Boy.Rus.Eng.DVDRip.aviOne Tree Hill (s09, NTV+)/One.Tree.Hill.s09e03.Love.the.Way.You.Lie.Rus.Eng.DVDRip.aviOne Tree Hill (s09, NTV+)/One.Tree.Hill.s09e09.Every.Breath.is.a.Bomb.Rus.Eng.DVDRip.aviOne Tree Hill (s09, NTV+)/One.Tree.Hill.s09e02.In.the.Room.Where.You.Sleep.Rus.Eng.DVDRip.aviOne Tree Hill (s09, NTV+)/One.Tree.Hill.s09e12.Anyone.Who.Had.a.Heart.Rus.Eng.DVDRip.aviOne Tree Hill (s09, NTV+)/One.Tree.Hill.s09e05.The.Killing.Moon.Rus.Eng.DVDRip.avi ArtSound 26 . Share this page: Direct link: HTML link: Post this link on your favorite forums, sites, to your friends, to the socials! .


Haut
  Profil 
 

Qui est en ligne

Utilisateurs parcourant ce forum: Aucun utilisateur enregistré et 0 invités

Permissions de ce forum:

Vous ne pouvez pas poster de nouveaux sujets
Vous ne pouvez pas répondre aux sujets
Vous ne pouvez pas éditer vos messages
Vous ne pouvez pas supprimer vos messages
Poster un nouveau sujet Répondre au sujet  [ 1 message ] 


cron
Créer un forum | © phpBB | Entraide & support | Forum gratuit